Paisa (2013) 400Mb UNCUT HDRip x264 [Dual Audio] [Hindi DD 2.0 – Telugu 2.0] EngSubs

Noor, who loves Prakash, decides to marry a Sheikh since Prakash loves Sweety. But, Prakash kidnaps Noor and escapes in a car, not knowing that it holds the Hawala money of a corrupt politician.

Movie Info :

Release date: 5 December 2013 (India)
Format : Matroska
File size : 432 MB
Duration : 2h 18min
Language : Hindi + Telugu
IMDB : 6.3/10

Video :

ID : 1
Format : AVC
Format/Info : Advanced Video Codec
Format profile : [email protected]
Format settings : CABAC / 4 Ref Frames
Format settings, CABAC : Yes
Format settings, RefFrames : 4 frames
Codec ID : V_MPEG4/ISO/AVC
Duration : 2 h 17 min
Nominal bit rate : 967 kb/s
Width : 1 280 pixels
Height : 552 pixels
Display aspect ratio : 2.35:1
Frame rate mode : Constant
Frame rate : 24.000 FPS
Color space : YUV
Chroma subsampling : 4:2:0
Bit depth : 8 bits
Scan type : Progressive
Bits/(Pixel*Frame) : 0.057
Title : HdFree4U.Com

Audio 1:

ID : 2
Format : MPEG Audio
Format version : Version 1
Format profile : Layer 3
Format settings : Joint stereo / MS Stereo
Codec ID : A_MPEG/L3
Codec ID/Hint : MP3
Duration : 2 h 17 min
Bit rate mode : Constant
Bit rate : 192 kb/s
Channel(s) : 2 channels
Sampling rate : 44.1 kHz
Compression mode : Lossy
Stream size : 189 MiB
Title : HdFree4U.Com
Writing library : LAME3.98.2
Language : Hindi
Default : Yes
Forced : No

Audio 2:

ID : 3
Format : AC-3
Format/Info : Audio Coding 3
Codec ID : A_AC3
Duration : 2 h 17 min
Bit rate mode : Constant
Bit rate : 384 kb/s
Channel(s) : 2 channels
Channel positions : Front: L R
Sampling rate : 44.1 kHz
Frame rate : 28.711 FPS (1536 SPF)
Bit depth : 16 bits
Compression mode : Lossy
Stream size : 377 MiB
Title : HdFree4U.Com
Language : Telugu
Service kind : Complete Main
Default : No
Forced : No

Text :

ID : 4
Format : UTF-8
Codec ID : S_TEXT/UTF8
Codec ID/Info : UTF-8 Plain Text
Title : HdFree4U.Com
Language : English
Default : Yes
Forced : No

Paisa-2013-720p2efc84c58f05172b.jpg

-Download Link-

Click Here

File size : 432 MB

Leave a Reply

Your email address will not be published. Required fields are marked *