Knight of the Dead (2013) 720p BluRay [Dual Audio] [Hindi DD 2.0 – English 2.0] x264

Assassins pursue crusading knights escorting the Holy Grail through plague-ridden countryside. When the knights enter a forbidden valley to escape their pursuers, a horde of flesh-eating zombies attacks them.

Movie Info :

Initial release: July 1, 2013
Format : Matroska
File size : 713 MB
Duration : 1 h 22 min
IMDB : 2.8/10

Video:

ID : 1
Format : AVC
Format/Info : Advanced Video Codec
Format profile : [email protected]
Format settings, CABAC : Yes
Format settings, RefFrames : 4 frames
Codec ID : V_MPEG4/ISO/AVC
Duration : 1 h 22 min
Bit rate : 955 kb/s
Width : 1 280 pixels
Height : 720 pixels
Display aspect ratio : 16:9
Frame rate mode : Constant
Frame rate : 23.976 (24000/1001) FPS
Color space : YUV
Chroma subsampling : 4:2:0
Bit depth : 8 bits
Scan type : Progressive
Bits/(Pixel*Frame) : 0.043
Stream size : 561 MiB (79%)
Title : HdFree4U.Com

Audio 1:

ID : 2
Format : MPEG Audio
Format version : Version 1
Format profile : Layer 3
Mode : Joint stereo
Mode extension : MS Stereo
Codec ID : A_MPEG/L3
Codec ID/Hint : MP3
Duration : 1 h 22 min
Bit rate mode : Constant
Bit rate : 192 kb/s
Channel(s) : 2 channels
Sampling rate : 44.1 kHz
Frame rate : 38.281 FPS (1152 SPF)
Compression mode : Lossy
Stream size : 113 MiB (16%)
Title : HdFree4U.Com
Writing library : LAME3.98.2
Language : Hindi
Default : Yes
Forced : No

Audio 2:

ID : 3
Format : AAC
Format/Info : Advanced Audio Codec
Format profile : HE-AAC / LC
Codec ID : A_AAC
Duration : 1 h 22 min
Bit rate : 64.0 kb/s
Channel(s) : 2 channels
Channel positions : Front: L R
Sampling rate : 48.0 kHz / 24.0 kHz
Frame rate : 23.438 FPS (1024 SPF)
Compression mode : Lossy
Stream size : 37.6 MiB (5%)
Title : HdFree4U.Com
Language : English
Default : No
Forced : No

Text:

ID : 4
Format : UTF-8
Codec ID : S_TEXT/UTF8
Codec ID/Info : UTF-8 Plain Text
Duration : 1 min 53 s
Bit rate : 5 b/s
Count of elements : 4
Stream size : 78.0 Bytes (0%)
Title : HdFree4U.Com
Language : English
Default : Yes
Forced : No

vlcsnap-2018-01-11-22h55m40s546986aa18c072d6363.jpg
-Download Links-

Click Here

File Size:- 713 MB

Leave a Reply

Your email address will not be published. Required fields are marked *