The Expendables (2014) 720p DUAL AUDIO [HIN-ENG] x264

Barney, Drummer, Trench and the rest of the crew reunite to fight against Stonebanks, the co-founder of The Expendables, who is now a ruthless illegal arms trader.

Movie Info :

Release date: 22 August 2014 (India)
Format : Matroska
File size : 830 MB
Duration : 2h 06min
Language : Hindi + English
IMDB : 6.1/10

Video :

ID : 1
Format : AVC
Format/Info : Advanced Video Codec
Format profile : [email protected]
Format settings : CABAC / 16 Ref Frames
Format settings, CABAC : Yes
Format settings, RefFrames : 16 frames
Codec ID : V_MPEG4/ISO/AVC
Duration : 2 h 6 min
Bit rate : 750 kb/s
Width : 1 280 pixels
Height : 536 pixels
Display aspect ratio : 2.40:1
Frame rate mode : Constant
Frame rate : 23.976 (24000/1001) FPS
Color space : YUV
Chroma subsampling : 4:2:0
Bit depth : 8 bits
Scan type : Progressive
Bits/(Pixel*Frame) : 0.046
Stream size : 678 MiB (82%)
Title : HdFree4U.Com

Audio 1:

ID : 2
Format : AAC
Format/Info : Advanced Audio Codec
Format profile : LC
Codec ID : A_AAC-2
Duration : 2 h 6 min
Bit rate : 85.5 kb/s
Channel(s) : 6 channels
Channel positions : Front: L C R, Side: L R, LFE
Sampling rate : 44.1 kHz
Frame rate : 43.066 FPS (1024 SPF)
Compression mode : Lossy
Stream size : 77.3 MiB (9%)
Title : HdFree4U.Com
Language : English
Default : No
Forced : No

Audio 2:

ID : 3
Format : MPEG Audio
Format version : Version 1
Format profile : Layer 3
Format settings : Joint stereo / MS Stereo
Codec ID : A_MPEG/L3
Codec ID/Hint : MP3
Duration : 2 h 6 min
Bit rate mode : Constant
Bit rate : 80.0 kb/s
Channel(s) : 2 channels
Sampling rate : 44.1 kHz
Frame rate : 38.281 FPS (1152 SPF)
Compression mode : Lossy
Stream size : 72.3 MiB (9%)
Title : HdFree4U.Com
Writing library : LAME3.98.2
Language : Hindi
Default : Yes
Forced : No

Text :

ID : 4
Format : UTF-8
Codec ID : S_TEXT/UTF8
Codec ID/Info : UTF-8 Plain Text
Duration : 1 h 56 min
Bit rate : 41 b/s
Count of elements : 1340
Stream size : 35.6 KiB (0%)
Title : HdFree4U.Com
Language : English
Default : Yes
Forced : No

The-Expendables-2014-720pfeba59b2a10ea793.jpg

-Download Link-

Click Here

File size : 830 MB

Leave a Reply

Your email address will not be published. Required fields are marked *