NARUTO SHIPPUUDEN MOVIE 6 – ROAD TO NINJA (2012) 720p Bluray English Dubbed x264

The leaf ninjas drive off a group of fake Akatsuki members, impressing their families. After Naruto discovers Sakura arguing with her parents, Tobi uses Limited Tsukuyomi (限定月読 Gentei Tsukuyomi) to transport them into an alternate timeline. The two discover their friends acting oppositely compared with their usual personalities and Sasuke being around at the village.

Movie Info :

Initial release: July 28, 2012
Format : Matroska
File size : .99 GB
Duration : 1 h 49 min
IMDB : 7.8/10 

Video
ID : 1
Format : AVC
Format/Info : Advanced Video Codec
Format profile : [email protected]
Format settings, CABAC : Yes
Format settings, RefFrames : 1 frame
Codec ID : V_MPEG4/ISO/AVC
Duration : 1 h 49 min
Bit rate : 1 112 kb/s
Width : 1 280 pixels
Height : 692 pixels
Display aspect ratio : 1.85:1
Frame rate mode : Constant
Frame rate : 23.976 (24000/1001) FPS
Color space : YUV
Chroma subsampling : 4:2:0
Bit depth : 8 bits
Scan type : Progressive
Bits/(Pixel*Frame) : 0.052
Stream size : 871 MiB (85%)
Default : Yes
Forced : No

Audio
ID : 2
Format : AAC
Format/Info : Advanced Audio Codec
Format profile : LC
Codec ID : A_AAC
Duration : 1 h 49 min
Bit rate : 192 kb/s
Channel(s) : 2 channels
Channel positions : Front: L R
Sampling rate : 44.1 kHz
Frame rate : 43.066 FPS (1024 SPF)
Compression mode : Lossy
Stream size : 150 MiB (15%)
Language : English
Default : Yes
Forced : No

Text
ID : 3
Format : UTF-8
Codec ID : S_TEXT/UTF8
Codec ID/Info : UTF-8 Plain Text
Duration : 1 min 20 s
Bit rate : 6 b/s
Count of elements : 3
Stream size : 66.0 Bytes (0%)
Default : Yes
Forced : No

vlcsnap-2017-12-13-23h03m26s3441737f346973235bd.jpg

-Download Links-

Click Here

File Size :- 0.99 GB

Leave a Reply

Your email address will not be published. Required fields are marked *