NARUTO SHIPPUDEN THE MOVIE 3 – INHERITORS OF THE WILL OF FIRE (2009) 720p Bluray English Dubbed x264

Four ninjas who guard the Hidden Villages of Cloud Stone Mist and Sand disappear from their villages and another ninja war will break out if they are not found.

Movie Info :

Initial release: August 1, 2009
Format : Matroska
File size : 948 MB
Duration : 1 h 35 min
IMDB : 7.3/10 
Video:

ID : 1
Format : AVC
Format/Info : Advanced Video Codec
Format profile : [email protected]
Format settings, CABAC : Yes
Format settings, RefFrames : 1 frame
Format settings, GOP : M=1, N=60
Codec ID : V_MPEG4/ISO/AVC
Duration : 1 h 35 min
Bit rate : 1 189 kb/s
Width : 1 280 pixels
Height : 720 pixels
Display aspect ratio : 16:9
Frame rate mode : Constant
Frame rate : 23.976 (24000/1001) FPS
Color space : YUV
Chroma subsampling : 4:2:0
Bit depth : 8 bits
Scan type : Progressive
Bits/(Pixel*Frame) : 0.054
Stream size : 815 MiB (86%)
Title : HdFree4U.Com
Default : Yes
Forced : No

Audio :

ID : 2
Format : AAC
Format/Info : Advanced Audio Codec
Format profile : LC
Codec ID : A_AAC
Duration : 1 h 35 min
Bit rate : 192 kb/s
Channel(s) : 2 channels
Channel positions : Front: L R
Sampling rate : 44.1 kHz
Frame rate : 43.066 FPS (1024 SPF)
Compression mode : Lossy
Stream size : 132 MiB (14%)
Title : HdFree4U.Com
Default : Yes
Forced : No

Text :

ID : 3
Format : UTF-8
Codec ID : S_TEXT/UTF8
Codec ID/Info : UTF-8 Plain Text
Duration : 1 min 20 s
Bit rate : 6 b/s
Count of elements : 3
Stream size : 66.0 Bytes (0%)
Title : HdFree4U.Com
Default : Yes
Forced : No

vlcsnap-2017-12-12-23h38m37s077995acb67aa11e216.jpg

-Download Links-

Click Here

File Size :- 948 MB

Leave a Reply

Your email address will not be published. Required fields are marked *