Captain Phillips (2013) 720p Esub BluRay [Dual Audio] [English-Hindi] x264

In April 2009, the U.S. containership Maersk Alabama sails toward its destination on a day that seems like any other. Suddenly, Somali pirates race toward the vessel, climb aboard and take everyone hostage. The captain of the ship, Richard Phillips (Tom Hanks), looks to protect his crew from the hostile invaders, and their leader, Muse (Barkhad Abdi). The pirates are after millions of dollars, and Phillips must use his wits to make sure everyone survives and returns home safely.

Movie Info :

Initial release: October 11, 2013
Format : Matroska
File size : 839 MB
Duration : 1 h 31 min
IMDB : 7.8/10 

Video :
ID : 1
Format : AVC
Format/Info : Advanced Video Codec
Format profile : [email protected]
Format settings, CABAC : Yes
Format settings, RefFrames : 1 frame
Format settings, GOP : M=1, N=60
Codec ID : V_MPEG4/ISO/AVC
Duration : 1 h 21 min
Bit rate : 1 306 kb/s
Width : 1 280 pixels
Height : 720 pixels
Display aspect ratio : 16:9
Frame rate mode : Constant
Frame rate : 23.976 (24000/1001) FPS
Color space : YUV
Chroma subsampling : 4:2:0
Bit depth : 8 bits
Scan type : Progressive
Bits/(Pixel*Frame) : 0.059
Stream size : 763 MiB (91%)
Title : HdFree4U.Com
Language : English
Default : Yes
Forced : No
Color range : Limited
Color primaries : BT.709
Transfer characteristics : BT.709
Matrix coefficients : BT.709

Audio :

ID : 2
Format : MPEG Audio
Format version : Version 1
Format profile : Layer 3
Mode : Joint stereo
Mode extension : MS Stereo
Codec ID : A_MPEG/L3
Codec ID/Hint : MP3
Duration : 1 h 21 min
Bit rate mode : Constant
Bit rate : 128 kb/s
Channel(s) : 2 channels
Sampling rate : 44.1 kHz
Frame rate : 38.281 FPS (1152 SPF)
Compression mode : Lossy
Stream size : 74.8 MiB (9%)
Title : HdFree4U.Com
Writing library : LAME3.98.2
Language : English
Default : Yes
Forced : No

Text :

ID : 3
Format : UTF-8
Codec ID : S_TEXT/UTF8
Codec ID/Info : UTF-8 Plain Text
Duration : 1 h 29 min
Bit rate : 0 b/s
Count of elements : 3
Stream size : 66.0 Bytes (0%)
Title : HdFree4U.Com
Language : English
Default : Yes
Forced : No

vlcsnap-2017-12-10-21h18m46s652b0c5e8fb4f9dd26f.jpg

-Download Links-

Click Here

File size : 945MB

One Comment

Leave a Reply

Your email address will not be published. Required fields are marked *