Priest (2011) Hevc 720p BluRay [Dual Audio] [Hindi DD 5.1 English 5.1] x265

A veteran warrior, Priest, breaks his sacred vows to hunt down the blood-thirsty vampires who kidnapped his niece. His niece’s boyfriend, Hick, and Priestess, a former warrior, join him in the quest.

Movie Info :

Release date: 13 May 2011
Format : Matroska
File size : 1.57 GB
Duration : 1h 27min
Language : Hindi + English
IMDB : 5.7/10

Video :

ID : 1
Format : HEVC
Format/Info : High Efficiency Video Coding
Format profile : [email protected]@Main
Codec ID : V_MPEGH/ISO/HEVC
Duration : 1 h 27 min
Bit rate : 1 801 kb/s
Width : 1 280 pixels
Height : 528 pixels
Display aspect ratio : 2.40:1
Frame rate mode : Constant
Frame rate : 23.976 (24000/1001) FPS
Color space : YUV
Chroma subsampling : 4:2:0
Bit depth : 8 bits
Bits/(Pixel*Frame) : 0.111
Stream size : 1.10 GiB (70%)
Title : HdFree4U.Com

Audio 1:

ID : 2
Format : MPEG Audio
Format version : Version 1
Format profile : Layer 3
Mode : Joint stereo
Codec ID : A_MPEG/L3
Codec ID/Hint : MP3
Duration : 1 h 27 min
Bit rate mode : Constant
Bit rate : 320 kb/s
Channel(s) : 2 channels
Sampling rate : 48.0 kHz
Frame rate : 41.667 FPS (1152 SPF)
Compression mode : Lossy
Stream size : 200 MiB (12%)
Title : HdFree4U.Com
Writing library : LAME3.98.2
Language : Hindi
Default : Yes
Forced : No

Audio 2:

ID : 3
Format : AC-3
Format/Info : Audio Coding 3
Format settings, Endianness : Big
Codec ID : A_AC3
Duration : 1 h 27 min
Bit rate mode : Constant
Bit rate : 448 kb/s
Channel(s) : 6 channels
Channel positions : Front: L C R, Side: L R, LFE
Sampling rate : 48.0 kHz
Frame rate : 31.250 FPS (1536 SPF)
Bit depth : 16 bits
Compression mode : Lossy
Stream size : 280 MiB (17%)
Title : HdFree4U.Com
Language : English
Service kind : Complete Main
Default : No
Forced : No

Text :

ID : 4
Format : UTF-8
Codec ID : S_TEXT/UTF8
Codec ID/Info : UTF-8 Plain Text
Duration : 1 h 1 min
Bit rate : 0 b/s
Count of elements : 2
Stream size : 54.0 Bytes (0%)
Title : HdFree4U.Com
Language : English
Default : Yes
Forced : No

Priest-2011-Hevcc8144f66b57313ed.jpg

-Download Link-

Click Here

File size : 1.57 GB

2 Comments

Leave a Reply

Your email address will not be published. Required fields are marked *