RABB DA RADIO (2017) 720p WEBHD AVC- AAC

A couple from vastly different economic backgrounds struggle to keep their budding romance alive amidst escalating family pressure.

Movie Info :

Release date: 31 March 2017 (India)
Format : Matroska
File size : 0.99 GB
Duration : 2h 0min
IMDB : 8.3/10

Video :

ID : 1
Format : AVC
Format/Info : Advanced Video Codec
Format profile : [email protected]
Format settings, CABAC : Yes
Format settings, RefFrames : 3 frames
Codec ID : V_MPEG4/ISO/AVC
Duration : 1 h 59 min
Bit rate : 1 062 kb/s
Width : 1 280 pixels
Height : 720 pixels
Display aspect ratio : 16:9
Frame rate mode : Constant
Frame rate : 24.000 FPS
Color space : YUV
Chroma subsampling : 4:2:0
Bit depth : 8 bits
Scan type : Progressive
Bits/(Pixel*Frame) : 0.048
Stream size : 910 MiB (89%)
Title : HdFree4U.Com
Default : Yes
Forced : No
Color range : Limited
Color primaries : BT.709
Transfer characteristics : BT.709
Matrix coefficients : BT.709

Audio :

ID : 2
Format : AAC
Format/Info : Advanced Audio Codec
Format profile : LC
Codec ID : A_AAC
Duration : 1 h 59 min
Bit rate : 126 kb/s
Channel(s) : 2 channels
Channel positions : Front: L R
Sampling rate : 44.1 kHz
Frame rate : 43.066 FPS (1024 SPF)
Compression mode : Lossy
Stream size : 108 MiB (11%)
Title : HdFree4U.Com
Language : Hindi
Default : Yes
Forced : No

Text :

ID : 3
Format : UTF-8
Codec ID : S_TEXT/UTF8
Codec ID/Info : UTF-8 Plain Text
Duration : 1 h 1 min
Bit rate : 0 b/s
Count of elements : 2
Stream size : 54.0 Bytes (0%)
Title : HdFree4U.Com
Language : English
Default : Yes
Forced : No

RABBDARADIO201727030.jpg-Download Link-

Click Here

File size : 0.99 GB

Leave a Reply

Your email address will not be published. Required fields are marked *